#TITLE:Long Train Runnin';
#SUBTITLE:;
#ARTIST:X-Treme;
#TITLETRANSLIT:;
#SUBTITLETRANSLIT:;
#ARTISTTRANSLIT:;
#CREDIT:;
#BANNER:;
#BACKGROUND:;
#LYRICSPATH:;
#CDTITLE:;
#MUSIC:Long Train Runnin.mp3;
#MUSICLENGTH:101.781;
#OFFSET:-0.900;
#SAMPLESTART:56.045;
#SAMPLELENGTH:12.000;
#SELECTABLE:YES;
#BPMS:0.000=138.000;
#STOPS:;
#BGCHANGES:;
#FIRSTBEAT:8.000;

#LASTBEAT:232.000;

#SONGFILENAME:Songs/ERICth The 3rd/Long Train Runnin/Long Train.sm;

#HASMUSIC:1;

#HASBANNER:0;


//---------------dance-single - MANIAC----------------
#NOTES:
     dance-single:
     MANIAC:
     hard:
     8:
     0.456,0.513,0.216,0.197,0.142,283.000,22.000,20.000,0.000,0.000:

0000
0000
0000
0000
,
0000
0000
0000
0000
,
0000
0000
0000
0000
,
0000
0000
0000
0000
,
0001
1000
0000
0001
0010
0001
1000
0000
,
1000
0001
0000
1000
0010
1000
0100
0000
,
0010
0100
0000
0100
0010
1000
0001
0000
,
0100
0000
0010
0000
0000
0000
0010
0000
0100
0000
1000
0000
0100
0000
0000
0100
,
1000
0000
0100
0000
0001
0000
0100
0000
1000
0000
0100
0000
0000
0000
0000
0100
,
0001
0000
0100
0000
1000
0000
0100
0000
0001
0000
0000
0000
0000
0000
0000
0010
,
0001
0000
0010
0000
1000
0000
0010
0000
0001
0000
0000
0000
0000
0000
0000
0010
,
1000
0000
0010
0000
0001
0000
0010
0000
1000
0000
0000
0000
0000
1000
0100
0000
,
2200
0000
3300
0000
1000
0001
1000
0000
,
0110
0000
0000
0000
0110
0000
0000
0000
1000
0001
0000
1000
0000
0001
0000
0002
,
0000
0000
0003
0000
,
0001
0000
0010
0000
0001
0000
0010
0000
0001
0000
0000
0000
0000
0010
0100
0000
,
0220
0000
0000
0000
0000
0000
0000
0030
,
0002
0000
0000
0003
2000
0000
0000
3000
,
0310
0010
0010
0010
,
0010
0000
0100
0000
0010
0000
0100
0000
0000
0000
0000
0000
0000
0100
0001
0100
,
0001
0100
0001
1000
0100
1000
0001
0100
,
0001
0010
0001
0010
1000
0010
0001
0001
,
0001
0010
1000
0100
0010
1000
0010
0001
,
0100
1000
0100
0100
0100
0000
1001
0000
,
0010
1000
0100
0000
0010
0001
0100
0000
,
0010
0000
1000
0000
0100
1000
0100
1000
0100
0000
0000
0000
0000
0000
0000
0000
,
0100
0001
0010
0000
0100
1000
0010
0000
,
0100
0000
0001
0000
0010
0001
0010
0001
0010
0000
0000
0000
0000
0001
1000
0000
,
1000
0001
1000
0001
,
0010
0000
0000
0000
0100
0000
0000
0000
0010
1000
0000
0010
0000
1000
0000
0000
,
1100
1100
0011
0011
,
1001
0000
0000
0000
1001
0000
0000
0000
1001
0000
0000
0000
0000
0001
1000
0000
,
2002
0000
0000
0000
0000
0000
0000
0003
,
0020
0000
0000
0030
0200
0000
0000
0300
,
3001
0001
0001
0001
,
1000
0000
0001
0000
0100
0000
0010
0000
0000
0000
0000
0000
0000
0001
0010
0000
,
0022
0000
0000
0000
0000
0000
0000
0030
,
0200
0000
0000
0300
2000
0000
0000
3000
,
0013
0001
0010
0001
0010
0001
0010
0001
,
1000
0100
1000
0100
1000
0100
1000
0100
,
1000
0001
1000
0001
1000
0001
1000
0001
,
0100
0010
0100
0010
0100
0010
0110
0000
,
1000
0000
0010
0000
0000
0000
0010
0000
0100
0000
0000
0100
0000
0000
0100
0000
,
0001
0000
0010
0000
0000
0000
0010
0000
0001
0000
1000
0100
1000
0100
1000
0000
,
0100
0000
0010
0000
0000
0000
0010
0000
0001
0000
0000
1000
0000
0000
0010
0000
,
0100
0000
0010
0000
0000
0000
0001
0000
1000
0010
1000
0010
1000
0010
0100
0000
,
0100
0100
0100
0000
0010
0010
0010
0000
,
0100
0010
0100
0010
0011
0000
0000
0000
,
1000
1000
1000
0000
0001
0001
0001
0000
,
1000
0001
0001
0010
1100
0000
0000
0000
,
1100
0000
0011
0000
0010
0100
0010
0000
,
0110
0000
1001
0000
0010
0001
0010
0001
,
0010
0001
0100
1000
,
0010
0001
0100
1000
,
2020
0000
0000
0000
0000
0000
0000
3000
,
0002
0000
0000
0003
0200
0000
0000
0300
,
2030
0000
0000
0000
,
0000
0000
0000
0000
,
3000
0000
0000
0000;

//---------------dance-single - ANOTHER----------------
#NOTES:
     dance-single:
     ANOTHER:
     medium:
     5:
     0.341,0.484,0.177,0.128,0.000,212.000,18.000,13.000,0.000,0.000:

0000
0000
0000
0000
,
0000
0000
0000
0000
,
0010
0000
0000
0000
,
0010
0010
0010
0010
,
1000
0000
0100
0000
1000
0010
1000
0000
,
0001
0000
0100
0000
0001
0010
0001
0000
,
0100
0000
0010
0000
1000
0010
1000
0000
,
0001
0000
0100
0000
0001
1000
0100
0000
,
0001
0000
0010
0000
0001
0010
0001
0000
,
1000
0010
1010
0000
,
0100
0000
0010
0000
0001
1000
0100
0000
,
0001
0001
1001
0000
,
0100
0010
0001
0000
,
1000
0100
0010
0001
,
1000
0010
1000
0001
1000
0010
1000
0001
,
1000
0010
1000
0001
1001
0000
1001
0000
,
2000
0000
0000
0000
0000
0000
0000
3000
,
0020
0000
0000
0000
0000
0000
0000
0030
,
0100
0001
1000
0000
,
0001
1000
0100
0000
,
0010
1000
0001
0000
0010
0001
1000
0000
,
0010
1000
0001
0100
0001
0100
0001
0000
,
0001
1000
0100
0000
0100
0001
1000
0000
,
0100
0001
1000
0100
0010
0100
0010
0000
,
0001
0000
1000
0010
,
1000
0001
0010
0000
0011
0000
0000
0000
,
0100
0010
0110
0110
,
1001
0000
1001
0000
,
0010
0000
0000
0000
,
1000
0000
0001
0000
1000
0001
1000
0001
,
1000
0100
0010
0001
,
1000
0100
0010
0001
1000
0000
0000
0000
,
2000
0000
0000
0000
,
3020
0000
0000
0000
,
0130
0000
0001
1000
,
0100
0000
0010
0000
0001
1000
0001
0000
,
0002
0000
0000
0000
,
0000
0000
0000
0000
,
1003
0000
0100
0000
0010
0000
0001
0010
,
0001
1000
0001
0000
0000
0000
0001
0010
,
0001
1000
0001
0000
0000
0000
0001
0010
,
0001
1000
0001
0000
0000
0000
0001
0010
,
0001
0000
1000
0000
0100
1000
0010
0000
,
1001
0000
0100
0000
0010
1000
0001
0000
,
0010
0001
1000
0000
0100
0010
0001
0000
,
0001
0000
0001
0000
0001
0001
0001
0000
,
1000
0100
0010
0000
,
0010
0100
0010
0000
,
1001
0100
1001
0000
,
0110
0001
0110
0000
,
1000
0000
0100
0000
0010
0001
1000
0000
,
0001
0100
0001
0000
1000
0010
1000
0010
,
1000
0001
0100
0010
,
0001
1000
0001
0000
,
0220
0000
0000
0330
,
2002
0000
0000
3003
0220
0000
0000
0330
,
0220
0000
0000
0000
,
0000
0000
0000
0000
,
0330
0000
0000
0000;

//---------------dance-single - BASIC----------------
#NOTES:
     dance-single:
     BASIC:
     easy:
     3:
     0.170,0.285,0.088,0.049,0.000,107.000,9.000,5.000,0.000,0.000:

0000
0000
0000
0000
,
0000
0000
0000
0000
,
0000
0000
0000
0000
,
0000
0000
0000
0000
,
0110
0000
0000
0001
,
1000
0000
0000
1000
,
0001
0000
0000
0000
,
1001
0000
0000
0001
,
1000
0000
0010
0100
,
0001
0000
0010
0100
,
1000
0000
0000
0000
,
1001
0000
0000
0000
,
0001
0100
0000
0000
,
0001
0100
0000
0000
,
1000
0100
0000
0000
,
1000
0100
0000
0000
,
0020
0000
0000
0000
,
0000
0000
0000
0000
,
1030
0001
0000
0000
,
1000
0001
0000
0000
,
1000
0001
0100
0010
,
0001
1000
0100
0010
,
0001
1000
0000
0010
,
0000
1001
1001
1001
,
0010
1000
0000
0000
,
0010
0001
0000
0000
,
0010
1000
0000
0000
,
0010
0001
0000
0000
,
1000
0000
0000
0000
,
0000
0000
0000
0000
,
0011
1000
0100
0000
,
0000
1000
0001
1000
,
0002
0000
0000
0000
,
0000
0000
0000
0000
,
1003
0001
0000
0000
,
1000
0001
0000
0000
,
0020
0000
0000
0000
,
0000
0000
0000
0000
,
1030
0000
0010
0000
,
0010
0000
0001
0000
,
0001
0010
0100
0000
,
0001
0010
0100
0000
,
0001
0010
0100
0000
,
0001
0010
0100
0000
,
1000
0010
0100
0000
,
1000
0010
0100
0000
,
1000
0001
0001
0000
,
0001
1000
1000
0000
,
0010
0000
0000
0000
,
0100
0000
0000
0000
,
1001
0000
0100
0000
,
1001
0000
0010
0000
,
0100
0100
0010
0010
,
0100
0100
0010
0010
,
0002
0000
0000
0000
,
0000
0000
0000
0000
,
2003
0000
0000
0000
,
0000
0000
0000
0000
,
3000
0000
0000
0000;
